coor
一代宗师

[2019] [其他] [剧情] [WEB-1080P] 名字之歌 The.Song.Of.Names.2019.1080p.AMZN.WEBRip.DDP5.1.x264-NTG 3.60GB

-->

帖子完整标题:名字之歌 The.Song.Of.Names.2019.1080p.AMZN.WEBRip.DDP5.1.x264-NTG 3.60GB




◎译  名 名字之歌
◎片  名 The Song of Names
◎年  代 2019
◎产  地 加拿大 / 匈牙利
◎类  别 剧情
◎语  言 英语
◎上映日期 2019-09-08(多伦多电影节) / 2019-12-25(美国)
◎IMDb评分 6.2/10 from 410 users
◎IMDb链接 https://www.imdb.com/title/tt1657517
◎豆瓣评分 0/10 from 0 users
◎豆瓣链接 https://movie.douban.com/subject/5151788/
◎片  长 113分钟
◎导  演 佛朗索瓦·吉拉德 Fran?ois Girard
◎编  剧 杰弗里·凯恩 Jeffrey Caine / Norman Lebrecht
◎主  演 蒂姆·罗斯 Tim Roth
      克里夫·欧文 Clive Owen
      艾迪·伊扎德 Eddie Izzard
      绍尔·鲁宾内克 Saul Rubinek
      凯瑟琳·麦克马克 Catherine McCormack
      乔纳·豪尔-金 Jonah Hauer-King
      格伦·霍威尔 Gerran Howell
      朱利安·沃德姆 Julian Wadham
      卡米尔·雷米泽斯基 Kamil Lemieszewski
      艾米·斯洛安 Amy Sloan
      理查德·布雷默 Richard Bremmer
      麦克斯·麦克米兰 Max Macmillan
      斯坦利·汤森德 Stanley Townsend
      马格达莱娜·谢莱卡 Magdalena Cielecka
      马特·戴维尔 Matt Devere
      杰弗里·凯恩 Jeffrey Caine
      莎伦·佩尔西 Sharon Percy
      Yank Azman
      Tamás Puskás
      Lidia Bogacz
      Jakub Kotynski


◎标  签 蒂姆·罗斯 | 英国 | 安东尼·霍普金斯 | 音乐 | 二战 | 剧情 | 戏骨飚戏 | 达斯汀霍夫曼

◎简  介

  根据诺曼·莱布得勒支创作的同名小说改编,讲述二战时的伦敦,两个少年马丁和道维多尔成为生死之交。道维多尔是个从华沙流亡过来的小提琴手,寄居在马丁家。然而,就在道维多尔的小提琴独奏会的首演当晚,他却神秘地失踪了,这件事成了马丁几十年的心结。
Video
ID : 1
Format : AVC
Format/Info : Advanced Video Codec
Format profile : [email protected]
Format settings : CABAC / 4 Ref Frames
Format settings, CABAC : Yes
Format settings, Reference frames : 4 frames
Codec ID : V_MPEG4/ISO/AVC
Duration : 1 h 53 min
Bit rate mode : Constant
Bit rate : 3 908 kb/s
Nominal bit rate : 10 000 kb/s
Width : 1 920 pixels
Height : 800 pixels
Display aspect ratio : 2.40:1
Frame rate mode : Constant
Frame rate : 23.976 (24000/1001/189150) FPS
Color space : YUV
Chroma subsampling : 4:2:0
Bit depth : 8 bits
Scan type : Progressive
Bits/(Pixel*Frame) : 0.106
Stream size : 3.09 GiB (86%)
Default : Yes
Forced : No
Color range : Limited
Color primaries : BT.709
Transfer characteristics : BT.709
Matrix coefficients : BT.709

Audio
ID : 2
Format : E-AC-3
Format/Info : Enhanced AC-3
Commercial name : Dolby Digital Plus
Codec ID : A_EAC3
Duration : 1 h 53 min
Bit rate mode : Constant
Bit rate : 640 kb/s
Channel(s) : 6 channels
Channel layout : L R C LFE Ls Rs
Sampling rate : 48.0 kHz
Frame rate : 31.250 FPS (1536 SPF)
Compression mode : Lossy
Stream size : 518 MiB (14%)
Language : English
Service kind : Complete Main
Default : Yes
Forced : No

Text #1
ID : 3
Format : UTF-8
Codec ID : S_TEXT/UTF8
Codec ID/Info : UTF-8 Plain Text
Duration : 1 h 42 min
Bit rate : 41 b/s
Count of elements : 1029
Stream size : 31.6 KiB (0%)
Language : English
Default : No
Forced : No

Text #2
ID : 4
Format : UTF-8
Codec ID : S_TEXT/UTF8
Codec ID/Info : UTF-8 Plain Text
Duration : 1 h 48 min
Bit rate : 44 b/s
Count of elements : 1239
Stream size : 35.5 KiB (0%)
Title : SDH
Language : English
Default : No
Forced : No





1 个附件 售价 大小 下载 时间

The.Song.Of.Names.2019.1080p.AMZN.WEBRip.DDP5.1.x264-NTG.torrent 0 金币 36.49K 308 次 16天前

#1楼
发帖时间:2020-03-25 21:30:17   |   回复数:1
911degrees
隐世仙人♂
非常感谢,谢谢分享
15天前 #2楼
游客组