coor
一代宗师

[2012] [其他] [动作] [BD-1080P] 大海啸之鲨口逃生/诱饵 Bait.2012.1080p.BluRay.x264.DTS-FGT 8.16GB

-->



◎译  名 大海啸之鲨口逃生 / 诱饵
◎片  名 Bait 3D
◎年  代 2012
◎产  地 澳大利亚
◎类  别 动作 / 惊悚 / 灾难
◎语  言 英语
◎上映日期 2012-09-20(澳大利亚) / 2012-10-12(中国大陆)
◎IMDb评分 5.2/10 from 15830 users
◎IMDb链接 https://www.imdb.com/title/tt1438173
◎豆瓣评分 5.5/10 from 17939 users
◎豆瓣链接 https://movie.douban.com/subject/3735015/
◎片  长 92分钟(中国大陆)
◎导  演 金波·兰道 Kimble Rendall
◎编  剧 拉塞尔·穆卡希 Russell Mulcahy / 约翰·金 John Kim / Duncan Kennedy / 贾斯廷·蒙霍 Justin Monjo / 谢恩·阿姆斯特朗 Shayne Armstrong / 谢恩·克劳斯 Shane Krause
◎主  演 Richard Brancatisano
      泽维尔·塞缪尔 Xavier Samuel
      Chris Betts
      沙妮·文森 Sharni Vinson
      Simon Edds
      Miranda Deakin
      朱利安·麦克马洪 Julian McMahon
      丹·威利 Dan Wyllie
      Alice Parkinson
      菲比·托金 Phoebe Tonkin
      达米安·加维 Damien Garvey
      林肯·刘易斯 Lincoln Lewis
      卡莉巴·海内 Cariba Heine
      亚历克斯·罗素 Alex Russell
      彭耀顺 Adrian Pang
      戚玉武 Yuwu Qi
      马丁·萨克斯 Martin Sacks
      Nicholas McCallum


◎标  签 灾难 | 惊悚 | 血腥 | 澳大利亚 | 2012 | 恐怖 | 澳大利亚电影 | 美国

◎简  介

  宁静的澳洲海滩上,宿醉的救生员乔许(泽维尔·塞缪尔 Xavier Samuel 饰)让女友蒂娜(沙妮·文森 Sharni Vinson 饰)的哥哥罗利替他去海上例行检查防鲨网的设置,结果罗利遭到了鲨鱼的袭击,罗利的死对乔许和蒂娜造成了很大的心理阴影,乔许为此对女友充满了歉疚,乔许为此放弃了救生员的工作去超市做了理货员,蒂娜也远赴中国学习舞蹈。一年后,当蒂娜重新返回澳洲后,和乔许在超市不期而遇,与此同时,超市里风起云涌,偷窃、抢劫……就在这起突发事件白炽化的时候,地动天摇,海啸铺天盖地而来,超市立刻沦为孤岛,大鲨鱼随之而来,一场人鲨大战瞬间展开……

Video
ID : 1
Format : AVC
Format/Info : Advanced Video Codec
Format profile : [email protected]
Format settings, CABAC : Yes
Format settings, ReFrames : 3 frames
Codec ID : V_MPEG4/ISO/AVC
Duration : 1h 33mn
Bit rate : 11.0 Mbps
Width : 1 920 pixels
Height : 1 072 pixels
Display aspect ratio : 16:9
Frame rate mode : Constant
Frame rate : 23.976 fps
Color space : YUV
Chroma subsampling : 4:2:0
Bit depth : 8 bits
Scan type : Progressive
Bits/(Pixel*Frame) : 0.223
Stream size : 7.01 GiB (86%)
Writing library : x264 core 125 r2200 999b753
Encoding settings : cabac=1 / ref=4 / deblock=1:-3:-3 / analyse=0x3:0x133 / me=umh / subme=10 / psy=1 / psy_rd=1.00:0.00 / mixed_ref=1 / me_range=48 / chroma_me=1 / trellis=2 / 8x8dct=1 / cqm=0 / deadzone=21,11 / fast_pskip=0 / chroma_qp_offset=-2 / threads=6 / lookahead_threads=1 / sliced_threads=0 / nr=0 / decimate=1 / interlaced=0 / bluray_compat=0 / constrained_intra=0 / bframes=6 / b_pyramid=1 / b_adapt=2 / b_bias=0 / direct=3 / weightb=1 / open_gop=0 / weightp=2 / keyint=240 / keyint_min=23 / scenecut=40 / intra_refresh=0 / rc_lookahead=60 / rc=2pass / mbtree=1 / bitrate=11003 / ratetol=1.0 / qcomp=0.60 / qpmin=10 / qpmax=51 / qpstep=4 / cplxblur=20.0 / qblur=0.5 / vbv_maxrate=50000 / vbv_bufsize=50000 / nal_hrd=none / ip_ratio=1.40 / aq=1:1.00
Language : English
Default : Yes
Forced : No

Audio
ID : 2
Format : DTS
Format/Info : Digital Theater Systems
Mode : 16
Format settings, Endianness : Big
Codec ID : A_DTS
Duration : 1h 33mn
Bit rate mode : Constant
Bit rate : 1 510 Kbps
Channel(s) : 6 channels
Channel positions : Front: L C R, Side: L R, LFE
Sampling rate : 48.0 KHz
Bit depth : 24 bits
Compression mode : Lossy
Stream size : 1 007 MiB (12%)
Language : English
Default : Yes
Forced : No

Text
ID : 3
Format : PGS
Muxing mode : zlib
Codec ID : S_HDMV/PGS
Codec ID/Info : Picture based subtitle format used on BDs/HD-DVDs
Language : English
Default : No
Forced : No





1 个附件 售价 大小 下载 时间

Bait.2012.1080p.BluRay.x264.DTS-FGT.torrent 0 金币 82.14K 602 次 14天前

#1楼
发帖时间:2020-07-01 08:34:31   |   回复数:1
911degrees
隐世仙人♂
非常感谢,谢谢分享
14天前 #2楼
游客组