coor
一代宗师

[更 早] [欧美] [剧情] [BD-1080P] 金臂人/富贵人 The.Man.With.The.Golden.Arm.1955.1080p.BluRay.x264.DTS-FGT 9.31GB

-->



◎译  名 金臂人 / 富贵人
◎片  名 The Man with the Golden Arm
◎年  代 1955
◎产  地 美国
◎类  别 剧情 / 黑色电影
◎语  言 英语
◎上映日期 1955-12-14
◎IMDb评分 7.4/10 from 9451 users
◎IMDb链接 https://www.imdb.com/title/tt0048347
◎豆瓣评分 7.6/10 from 394 users
◎豆瓣链接 https://movie.douban.com/subject/1296439/
◎片  长 119 分钟
◎导  演 奥托·普雷明格 Otto Preminger
◎编  剧 Ben Hecht / Lewis Meltzer / Nelson Algren
◎主  演 弗兰克·辛纳特拉 Frank Sinatra
      埃琳诺·帕克 Eleanor Parker
      金·诺瓦克 Kim Novak
      阿诺德·斯唐 Arnold Stang
      达伦·麦克加文 Darren McGavin


◎标  签 美国 | 黑色电影 | 奥托·普雷明格 | 1955 | 1950s | 美国电影 | Otto_Preminger | OttoPreminger

◎简  介

  “金臂人”弗兰奇(Frank Sinatra 饰)在强制戒毒部门治疗6个月后回到了自己熟悉的街区。毒贩路易马上向他兜售毒品,以前的赌场老板邀请他再次为自己坐庄,靠假装失去自理能力俘获了弗兰奇的伴侣佐茜催促他尽快回到以前的工作……然而弗兰奇对曾经的混乱生活只有厌倦,他戒毒 期间学习了打鼓,并牢记医生的话要转行做鼓手,但很快在众人的阻扰下他又回到了赌桌,毒瘾发作让他最终无法摆脱路易。
  因为费兰奇不忍抛下“下肢瘫痪”的左茜而无法和互有情意的酒吧女莫利(Kim Novak 饰)结合,只有潦倒的小偷朋友斯巴诺站在他一边。失去了莫利的弗兰奇诸事不顺,更大的困境还在等待着他……

◎获奖情况

  第28届奥斯卡金像奖(1956)
  最佳男主角(提名) 弗兰克·辛纳特拉
  黑白片最佳艺术指导和布景(提名) 达雷尔·西尔维拉 / Joseph C. Wright
  剧情/喜剧片最佳配乐(提名) 埃尔默·伯恩斯坦

Video
ID : 1
Format : AVC
Format/Info : Advanced Video Codec
Format profile : [email protected]
Format settings, CABAC : Yes
Format settings, ReFrames : 4 frames
Codec ID : V_MPEG4/ISO/AVC
Duration : 1h 59mn
Bit rate : 10.2 Mbps
Width : 1 488 pixels
Height : 1 080 pixels
Display aspect ratio : 1.378
Frame rate mode : Constant
Frame rate : 24.000 fps
Color space : YUV
Chroma subsampling : 4:2:0
Bit depth : 8 bits
Scan type : Progressive
Bits/(Pixel*Frame) : 0.264
Stream size : 8.49 GiB (91%)
Writing library : x264 core 138 r2358 9e941d1
Encoding settings : cabac=1 / ref=4 / deblock=1:-3:-3 / analyse=0x3:0x113 / me=umh / subme=8 / psy=1 / psy_rd=1.00:0.15 / mixed_ref=1 / me_range=16 / chroma_me=1 / trellis=1 / 8x8dct=1 / cqm=0 / deadzone=21,11 / fast_pskip=0 / chroma_qp_offset=-3 / threads=12 / lookahead_threads=2 / sliced_threads=0 / nr=0 / decimate=1 / interlaced=0 / bluray_compat=0 / constrained_intra=0 / bframes=3 / b_pyramid=2 / b_adapt=2 / b_bias=0 / direct=3 / weightb=1 / open_gop=0 / weightp=2 / keyint=240 / keyint_min=24 / scenecut=40 / intra_refresh=0 / rc_lookahead=50 / rc=crf / mbtree=1 / crf=20.0 / qcomp=0.60 / qpmin=0 / qpmax=69 / qpstep=4 / ip_ratio=1.40 / aq=1:1.00
Language : English
Default : Yes
Forced : No

Audio
ID : 2
Format : DTS
Format/Info : Digital Theater Systems
Mode : 16
Format settings, Endianness : Big
Codec ID : A_DTS
Duration : 1h 59mn
Bit rate mode : Constant
Bit rate : 768 Kbps
Channel(s) : 1 channel
Channel positions : Front: C
Sampling rate : 48.0 KHz
Frame rate : 93.750 fps (512 spf)
Bit depth : 24 bits
Compression mode : Lossy
Stream size : 655 MiB (7%)
Language : English
Default : Yes
Forced : No

Menu
00:00:00.000 : en:
00:01:37.792 : en:
00:15:13.917 : en:
00:26:46.583 : en:
00:34:31.583 : en:
00:46:45.208 : en:
01:00:45.625 : en:
01:11:48.958 : en:
01:18:49.208 : en:
01:29:28.583 : en:
01:44:01.875 : en:
01:53:20.625 : en:





1 个附件 售价 大小 下载 时间

The.Man.With.The.Golden.Arm.1955.1080p.BluRay.x264.DTS-FGT.torrent 0 金币 93.77K 210 次 14天前

#1楼
发帖时间:2020-07-01 08:45:55   |   回复数:1
911degrees
隐世仙人♂
非常感谢,谢谢分享
13天前 #2楼
游客组