coor
一代宗师

[更 早] [欧美] [喜剧] [BD-1080P] 迪兹先生/乡巴佬进城 Mr.Deeds.2002.1080p.BluRay.x264.DTS-FGT 9.79GB

-->



◎译  名 迪兹先生 / 乡巴佬进城 / 凸槌大亨(台)
◎片  名 Mr. Deeds
◎年  代 2002
◎产  地 美国
◎类  别 喜剧 / 爱情
◎语  言 英语
◎上映日期 2002-06-28(美国)
◎IMDb评分 5.8/10 from 132838 users
◎IMDb链接 https://www.imdb.com/title/tt0280590
◎豆瓣评分 6.5/10 from 3538 users
◎豆瓣链接 https://movie.douban.com/subject/1305653/
◎片  长 96 分钟
◎导  演 Steven Brill
◎编  剧 Clarence Budington Kelland / 罗伯特·里斯金 Robert Riskin / Tim Herlihy
◎主  演 亚当·桑德勒 Adam Sandler
      薇诺娜·瑞德 Winona Ryder
      John Turturro


◎标  签 喜剧 | 美国 | AdamSandler | 爱情 | 美国电影 | 亚当·桑德勒 | 2002 | WinonaRyder

◎简  介

  迪兹(亚当·桑德勒 Adam Sandler 饰)是一个来自于偏僻小镇的平凡的轻人。某一日,一笔从天而降的巨款结束了他平静的生活。原来,迪兹病重的叔父是一个有钱有势的超级富豪,经营着价值400亿的传媒公司,不久于世的他将公司作为遗产赠送给了迪兹,同时也引出了一个有笑有泪的喜剧故事。
  成为了亿万富豪后,善良的迪兹并没有改变自己行为处事的方式,利用这笔珍贵的财富,迪兹为小镇做了许多善事,他的诚恳为他赢得了人气和尊重。但并不是每一个人都像迪兹一样善良坦诚,贝碧(薇诺娜·瑞德 Winona Ryder 饰)就是其中的一个。受上司所托,她隐藏真实目的来到了迪兹的身边,企图挖到什么不得了的猛料,但随着时间的推移,她发现迪兹不仅是一个真正的正人君子,还是一个难得的值得托付终身的好男人。

Video
ID : 1
Format : AVC
Format/Info : Advanced Video Codec
Format profile : [email protected]
Format settings, CABAC : Yes
Format settings, ReFrames : 4 frames
Codec ID : V_MPEG4/ISO/AVC
Duration : 1h 36mn
Bit rate : 13.0 Mbps
Width : 1 920 pixels
Height : 1 040 pixels
Display aspect ratio : 1.85:1
Frame rate mode : Constant
Frame rate : 23.976 (24000/1001) fps
Color space : YUV
Chroma subsampling : 4:2:0
Bit depth : 8 bits
Scan type : Progressive
Bits/(Pixel*Frame) : 0.272
Stream size : 8.57 GiB (88%)
Writing library : x264 core 114 r1913 5fd3dce
Encoding settings : cabac=1 / ref=4 / deblock=1:-3:-2 / analyse=0x3:0x113 / me=umh / subme=10 / psy=1 / psy_rd=1.00:0.00 / mixed_ref=1 / me_range=48 / chroma_me=1 / trellis=2 / 8x8dct=1 / cqm=0 / deadzone=21,11 / fast_pskip=0 / chroma_qp_offset=-2 / threads=6 / sliced_threads=0 / nr=0 / decimate=0 / interlaced=0 / constrained_intra=0 / bframes=8 / b_pyramid=2 / b_adapt=2 / b_bias=0 / direct=3 / weightb=1 / open_gop=0 / weightp=2 / keyint=250 / keyint_min=23 / scenecut=40 / intra_refresh=0 / rc_lookahead=70 / rc=2pass / mbtree=1 / bitrate=13000 / ratetol=1.0 / qcomp=0.80 / qpmin=10 / qpmax=51 / qpstep=4 / cplxblur=20.0 / qblur=0.5 / vbv_maxrate=50000 / vbv_bufsize=62500 / nal_hrd=none / ip_ratio=1.40 / aq=1:0.80
Language : English
Default : Yes
Forced : No
Color range : Limited
Matrix coefficients : BT.709

Audio
ID : 2
Format : DTS
Format/Info : Digital Theater Systems
Mode : 16
Format settings, Endianness : Big
Codec ID : A_DTS
Duration : 1h 36mn
Bit rate mode : Constant
Bit rate : 1 509 Kbps
Channel(s) : 6 channels
Channel positions : Front: L C R, Side: L R, LFE
Sampling rate : 48.0 KHz
Frame rate : 93.750 fps (512 spf)
Bit depth : 24 bits
Compression mode : Lossy
Stream size : 1.02 GiB (10%)
Language : English
Default : Yes
Forced : No

Text
ID : 3
Format : UTF-8
Codec ID : S_TEXT/UTF8
Codec ID/Info : UTF-8 Plain Text
Title : English
Language : English
Default : No
Forced : No

Menu
00:00:00.000 : en:en:Start
00:05:49.432 : en:en:Preston Blake, Human Popsicle
00:09:30.486 : en:en:The Heir Is Found
00:18:15.344 : en:en:Longfellow Deeds
00:23:24.986 : en:en:The Locals
00:26:52.402 : en:en:\"Space Oddity\"
00:32:12.555 : en:en:Emilio Lopez
00:36:16.340 : en:en:Stir of Echoes
00:44:14.068 : en:en:Wicked Bad Frostbite
00:47:09.368 : en:en:First Day on the Job
00:56:20.377 : en:en:Lady in Distress
00:59:02.038 : en:en:The Simons Party
01:07:05.813 : en:en:The Morning After
01:12:37.811 : en:en:Blake Funeral Service
01:19:25.469 : en:en:Kevin & Buddy Ward
01:23:46.938 : en:en:A Date in Central Park





1 个附件 售价 大小 下载 时间

Mr.Deeds.2002.1080p.BluRay.x264.DTS-FGT.torrent 0 金币 98.45K 245 次 14天前

#1楼
发帖时间:2020-07-01 08:51:35   |   回复数:1
911degrees
隐世仙人♂
非常感谢,谢谢分享
13天前 #2楼
游客组