coor
一代宗师

[2016] [其他] [剧情] [BD-1080P] 小大人 Little.Men.2016.1080p.BluRay.x264.DTS-FGT 7.36GB

-->



◎译  名 小大人 / Thank You for Being Honest / The Silent Treatment / 小小人 / 小小男人(港) / 有你的布鲁克林(台) / 穷朋友?富朋友(港)
◎片  名 Little Men
◎年  代 2016
◎产  地 美国 / 希腊 / 巴西
◎类  别 剧情 / 儿童
◎语  言 英语 / 西班牙语
◎上映日期 2016-01-14(圣丹斯电影节) / 2016-02-13(柏林电影节)
◎IMDb评分 6.7/10 from 6671 users
◎IMDb链接 https://www.imdb.com/title/tt4919484
◎豆瓣评分 7.3/10 from 3924 users
◎豆瓣链接 https://movie.douban.com/subject/26673872/
◎片  长 85分钟
◎导  演 艾拉·萨克斯 Ira Sachs
◎编  剧 毛里西奥·扎克瑞亚斯 Mauricio Zacharias / 艾拉·萨克斯 Ira Sachs
◎主  演 西奥·泰普里兹 Theo Taplitz
      约翰·普罗卡奇诺 John Procaccino
      Ching Valdes-Aran
      斯坦·卡普 Stan Carp
      宝琳娜·加西亚 Paulina García
      塔利亚·巴尔萨姆 Talia Balsam
      格雷戈·金尼尔 Greg Kinnear
      詹妮弗·艾莉 Jennifer Ehle
      迈克尔·巴尔别里 Michael Barbieri
      Stella Schnabel
      尤隆达·罗斯 Yolonda Ross
      Leah Gardiner
      Maliq Johnson
      Anthony A. Flamminio
      阿尔弗雷德·莫里纳 Alfred Molina
      Mauricio Bustamante
      克莱尔·弗利 Clare Foley
      安迪·卡尔 Andy Karl
      阿瑟·J·纳斯加勒拉 Arthur J. Nascarella
      约翰尼·塞雷 Johnny Serret


◎标  签 美国 | 成长 | 青春 | 2016 | 家庭 | 剧情 | 儿童 | 同性

◎简  介

  祖父过世后,小杰与他的父母搬进祖父位于布鲁克林的房子,很快便和楼下的东尼成为无话不谈的好友,甚至梦想一起读高中,然而他们的友情却因为大人的争吵而有了变化??以细腻描绘同志感情世界而备受肯定的艾拉萨克斯,探索着友情的微妙变化,正呼应着前作《爱很怪》里两位主角的爱情,所有的难能可贵却敌挡不住成人世界的算计。

◎获奖情况

  第66届柏林国际电影节(2016)
  泰迪熊奖 最佳电影(提名) 艾拉·萨克斯

  第32届美国独立精神奖(2017)
  最佳女配角(提名) 宝琳娜·加西亚
  最佳剧本(提名) 艾拉·萨克斯 / 毛里西奥·扎克瑞亚斯

Video
ID : 1
Format : AVC
Format/Info : Advanced Video Codec
Format profile : [email protected]
Format settings : CABAC / 4 Ref Frames
Format settings, CABAC : Yes
Format settings, Reference frames : 4 frames
Codec ID : V_MPEG4/ISO/AVC
Duration : 1 h 25 min
Bit rate : 10.6 Mb/s
Nominal bit rate : 11.5 Mb/s
Width : 1 728 pixels
Height : 1 032 pixels
Display aspect ratio : 5:3
Frame rate mode : Constant
Frame rate : 24.000 FPS
Color space : YUV
Chroma subsampling : 4:2:0
Bit depth : 8 bits
Scan type : Progressive
Bits/(Pixel*Frame) : 0.247
Stream size : 6.32 GiB (86%)
Title : Little.Men.2016.1080p.BluRay.x264.DTS-FGT
Writing library : x264 core 148 r2694 3b70645
Encoding settings : cabac=1 / ref=4 / deblock=1:-2:-2 / analyse=0x3:0x113 / me=umh / subme=7 / psy=1 / psy_rd=1.00:0.15 / mixed_ref=1 / me_range=16 / chroma_me=1 / trellis=1 / 8x8dct=1 / cqm=0 / deadzone=21,11 / fast_pskip=1 / chroma_qp_offset=-3 / threads=40 / lookahead_threads=3 / sliced_threads=0 / nr=0 / decimate=1 / interlaced=0 / bluray_compat=0 / constrained_intra=0 / bframes=3 / b_pyramid=2 / b_adapt=2 / b_bias=0 / direct=3 / weightb=1 / open_gop=0 / weightp=2 / keyint=250 / keyint_min=25 / scenecut=40 / intra_refresh=0 / rc_lookahead=50 / rc=abr / mbtree=1 / bitrate=11500 / ratetol=1.0 / qcomp=0.60 / qpmin=0 / qpmax=69 / qpstep=4 / vbv_maxrate=31250 / vbv_bufsize=31250 / nal_hrd=none / filler=0 / ip_ratio=1.40 / aq=1:1.00
Language : English
Default : Yes
Forced : No

Audio
ID : 2
Format : DTS
Format/Info : Digital Theater Systems
Codec ID : A_DTS
Duration : 1 h 25 min
Bit rate mode : Constant
Bit rate : 1 509 kb/s
Channel(s) : 6 channels
Channel layout : C L R Ls Rs LFE
Sampling rate : 48.0 kHz
Frame rate : 93.750 FPS (512 SPF)
Bit depth : 24 bits
Compression mode : Lossy
Stream size : 922 MiB (12%)
Title : Little.Men.2016.1080p.BluRay.x264.DTS-FGT
Language : English
Default : Yes
Forced : No

Text
ID : 3
Format : UTF-8
Codec ID : S_TEXT/UTF8
Codec ID/Info : UTF-8 Plain Text
Language : English
Default : Yes
Forced : No

Menu
00:00:00.000 : en:Chapter 01
00:10:40.000 : en:Chapter 02
00:19:23.791 : en:Chapter 03
00:32:21.875 : en:Chapter 04
00:43:34.541 : en:Chapter 05
00:54:44.791 : en:Chapter 06
01:02:04.833 : en:Chapter 07
01:12:48.208 : en:Chapter 08





1 个附件 售价 大小 下载 时间

Little.Men.2016.1080p.BluRay.x264.DTS-FGT.torrent 0 金币 74.24K 217 次 14天前

#1楼
发帖时间:2020-07-01 09:01:09   |   回复数:1
911degrees
隐世仙人♂
非常感谢,谢谢分享
13天前 #2楼
游客组