coor
一代宗师

[更 早] [欧美] [科幻] [BD-1080P] 飞碟入侵地球 Earth.Vs.The.Flying.Saucers.1956.COLORiZED.1080p.BluRay.x264.DTS-FGT 6.87

-->



◎译  名 飞碟入侵地球
◎片  名 Earth vs. the Flying Saucers
◎年  代 1956
◎产  地 美国
◎类  别 科幻 / 恐怖 / 奇幻
◎语  言 英语
◎上映日期 1956-08-01
◎IMDb评分 6.4/10 from 6749 users
◎IMDb链接 https://www.imdb.com/title/tt0049169
◎豆瓣评分 6.1/10 from 110 users
◎豆瓣链接 https://movie.douban.com/subject/2295259/
◎片  长 83 分钟
◎导  演 Fred F. Sears
◎编  剧 Donald E. Keyhoe / Curt Siodmak / George Worthing Yates / Bernard Gordon
◎主  演 休·马洛威 Hugh Marlowe
      琼·泰勒 Joan Taylor
      Donald Curtis


◎标  签 科幻 | 美国 | 1956 | cult | 恐怖 | 1950s | 黑白 | 美国电影

◎简  介

  While driving through the desert with his wife Carol Marvin to a military base to send the eleventh rocket to the orbit of Earth for helping the exploration of the outer space in the Operation Sky Hook, Dr. Russell A. Marvin and Carol see a flying saucer and accidentally records a message in their tape recorder. Once in the base, Dr. Russell is informed by his father-in-law and general that the ten first satellites had mysteriously felt on Earth. When Dr. Russell decodes the message, he encounters the aliens that ask him to schedule a meeting with the leaders of Earth in Washington in 56 days with the intention to invade Earth without panicking the population. Dr. Russell develops an anti-magnetic weapon that becomes that last hope of human race against the hostile aliens.

Video
ID : 1
Format : AVC
Format/Info : Advanced Video Codec
Format profile : [email protected]
Format settings : CABAC / 4 Ref Frames
Format settings, CABAC : Yes
Format settings, Reference frames : 4 frames
Codec ID : V_MPEG4/ISO/AVC
Duration : 1 h 23 min
Bit rate : 10 000 kb/s
Width : 1 920 pixels
Height : 1 080 pixels
Display aspect ratio : 16:9
Frame rate mode : Constant
Frame rate : 23.976 (24000/1001/189150) FPS
Color space : YUV
Chroma subsampling : 4:2:0
Bit depth : 8 bits
Scan type : Progressive
Bits/(Pixel*Frame) : 0.201
Stream size : 5.83 GiB (85%)
Writing library : x264 core 130 r2273 b3065e6
Encoding settings : cabac=1 / ref=3 / deblock=1:0:0 / analyse=0x3:0x113 / me=hex / subme=7 / psy=1 / psy_rd=1.00:0.00 / mixed_ref=1 / me_range=16 / chroma_me=1 / trellis=1 / 8x8dct=1 / cqm=0 / deadzone=21,11 / fast_pskip=1 / chroma_qp_offset=-2 / threads=12 / lookahead_threads=2 / sliced_threads=0 / nr=0 / decimate=1 / interlaced=0 / bluray_compat=0 / constrained_intra=0 / bframes=3 / b_pyramid=2 / b_adapt=1 / b_bias=0 / direct=1 / weightb=1 / open_gop=0 / weightp=2 / keyint=240 / keyint_min=24 / scenecut=40 / intra_refresh=0 / rc_lookahead=40 / rc=abr / mbtree=1 / bitrate=10000 / ratetol=1.0 / qcomp=0.60 / qpmin=0 / qpmax=69 / qpstep=4 / vbv_maxrate=62500 / vbv_bufsize=78125 / nal_hrd=none / ip_ratio=1.40 / aq=1:1.00
Language : English
Default : Yes
Forced : No
Color range : Limited
Color primaries : BT.709
Transfer characteristics : BT.709
Matrix coefficients : BT.709

Audio
ID : 2
Format : DTS
Format/Info : Digital Theater Systems
Codec ID : A_DTS
Duration : 1 h 23 min
Bit rate mode : Constant
Bit rate : 1 536 kb/s
Channel(s) : 6 channels
Channel layout : C L R Ls Rs LFE
Sampling rate : 48.0 kHz
Frame rate : 93.750 FPS (512 SPF)
Bit depth : 16 bits
Compression mode : Lossy
Stream size : 920 MiB (13%)
Language : English
Default : Yes
Forced : No

Text #1
ID : 3
Format : UTF-8
Codec ID : S_TEXT/UTF8
Codec ID/Info : UTF-8 Plain Text
Language : English
Default : Yes
Forced : No

Text #2
ID : 4
Format : PGS
Muxing mode : zlib
Codec ID : S_HDMV/PGS
Codec ID/Info : Picture based subtitle format used on BDs/HD-DVDs
Language : French
Default : No
Forced : No

Text #3
ID : 5
Format : PGS
Muxing mode : zlib
Codec ID : S_HDMV/PGS
Codec ID/Info : Picture based subtitle format used on BDs/HD-DVDs
Language : Spanish
Default : No
Forced : No

Text #4
ID : 6
Format : PGS
Muxing mode : zlib
Codec ID : S_HDMV/PGS
Codec ID/Info : Picture based subtitle format used on BDs/HD-DVDs
Language : Arabic
Default : No
Forced : No

Text #5
ID : 7
Format : PGS
Muxing mode : zlib
Codec ID : S_HDMV/PGS
Codec ID/Info : Picture based subtitle format used on BDs/HD-DVDs
Language : Hindi
Default : No
Forced : No

Text #6
ID : 8
Format : PGS
Muxing mode : zlib
Codec ID : S_HDMV/PGS
Codec ID/Info : Picture based subtitle format used on BDs/HD-DVDs
Language : Japanese
Default : No
Forced : No

Text #7
ID : 9
Format : PGS
Muxing mode : zlib
Codec ID : S_HDMV/PGS
Codec ID/Info : Picture based subtitle format used on BDs/HD-DVDs
Language : Portuguese
Default : No
Forced : No

Text #8
ID : 10
Format : PGS
Muxing mode : zlib
Codec ID : S_HDMV/PGS
Codec ID/Info : Picture based subtitle format used on BDs/HD-DVDs
Language : French
Default : No
Forced : No

Text #9
ID : 11
Format : PGS
Muxing mode : zlib
Codec ID : S_HDMV/PGS
Codec ID/Info : Picture based subtitle format used on BDs/HD-DVDs
Language : Spanish
Default : No
Forced : No

Text #10
ID : 12
Format : PGS
Muxing mode : zlib
Codec ID : S_HDMV/PGS
Codec ID/Info : Picture based subtitle format used on BDs/HD-DVDs
Language : Japanese
Default : No
Forced : No

Text #11
ID : 13
Format : PGS
Muxing mode : zlib
Codec ID : S_HDMV/PGS
Codec ID/Info : Picture based subtitle format used on BDs/HD-DVDs
Language : Portuguese
Default : No
Forced : No





1 个附件 售价 大小 下载 时间

Earth.Vs.The.Flying.Saucers.1956.COLORiZED.1080p.BluRay.x264.DTS-FGT.torrent 0 金币 69.24K 203 次 14天前

#1楼
发帖时间:2020-07-01 09:02:02   |   回复数:1
911degrees
隐世仙人♂
非常感谢,谢谢分享
13天前 #2楼
游客组