coor
一代宗师

[2009] [其他] [剧情] [BD-1080P] 皮雷的慷慨 Perriers.Bounty.2009.1080p.BluRay.x264.DTS-FGT 7.02GB

-->



◎译  名 皮雷的慷慨
◎片  名 Perrier's Bounty
◎年  代 2009
◎产  地 爱尔兰 / 英国
◎类  别 剧情 / 喜剧 / 动作 / 惊悚 / 犯罪
◎语  言 英语
◎上映日期 2010-05-14
◎IMDb评分 6.4/10 from 6283 users
◎IMDb链接 https://www.imdb.com/title/tt1003034
◎豆瓣评分 7.0/10 from 318 users
◎豆瓣链接 https://movie.douban.com/subject/3008269/
◎片  长 88 分钟
◎导  演 Ian Fitzgibbon
◎编  剧 Mark O'Rowe
◎主  演 Cillian Murphy
      Brendan Gleeson
      Gabriel Byrne
      Jim Broadbent
      Domhnall Gleeson
      Jodie Whittaker
      Natalie Britton


◎标  签 CillianMurphy | 爱尔兰 | 犯罪 | JamesMcAvoy | 爱尔兰电影 | 喜剧 | 英国 | 2010

◎简  介

  迈克尔(希里安?墨菲 Cillian Murphy 饰)是一个不学无术,整天游手好闲的青年,他欠了达伦(布莱丹?格里森 Brendan Gleeson 饰)一大笔钱无力偿还,糟糕的是,达伦是当地最臭名昭著的黑帮头头。布兰达(茱蒂?惠特克 Jodie Whittaker 饰)是迈克尔的朋友,在一场意外中,她误杀了达伦手下的一个小喽啰,巧合的是,迈克尔的父亲吉姆(吉姆?布劳德本特 Jim Broadbent 饰)刚好出现在凶杀现场,成为了目击证人,三人为了躲避达伦的追杀不得不踏上了逃亡的旅途。
  父亲难产而又固执的性格,布兰达脸上永远愁云惨淡的表情,接二连三的麻烦和意外简直要将迈克尔给逼疯。

Video
ID : 1
Format : AVC
Format/Info : Advanced Video Codec
Format profile : [email protected]
Format settings : CABAC / 5 Ref Frames
Format settings, CABAC : Yes
Format settings, Reference frames : 5 frames
Codec ID : V_MPEG4/ISO/AVC
Duration : 1 h 27 min
Bit rate : 9 962 kb/s
Width : 1 920 pixels
Height : 800 pixels
Display aspect ratio : 2.40:1
Frame rate mode : Constant
Frame rate : 23.976 (24000/1001/189150) FPS
Color space : YUV
Chroma subsampling : 4:2:0
Bit depth : 8 bits
Scan type : Progressive
Bits/(Pixel*Frame) : 0.271
Stream size : 5.96 GiB (85%)
Writing library : x264 core 108 r1790 8eaf8a6
Encoding settings : cabac=1 / ref=5 / deblock=1:-3:-3 / analyse=0x3:0x113 / me=umh / subme=10 / psy=1 / psy_rd=1.00:0.00 / mixed_ref=1 / me_range=32 / chroma_me=1 / trellis=2 / 8x8dct=1 / cqm=0 / deadzone=21,11 / fast_pskip=0 / chroma_qp_offset=-2 / threads=6 / sliced_threads=0 / nr=0 / decimate=0 / interlaced=0 / constrained_intra=0 / bframes=10 / b_pyramid=2 / b_adapt=2 / b_bias=0 / direct=3 / weightb=1 / open_gop=0 / weightp=2 / keyint=250 / keyint_min=23 / scenecut=40 / intra_refresh=0 / rc=2pass / mbtree=0 / bitrate=9962 / ratetol=1.0 / qcomp=0.60 / qpmin=10 / qpmax=51 / qpstep=4 / cplxblur=20.0 / qblur=0.5 / ip_ratio=1.40 / pb_ratio=1.30 / aq=1:0.50
Language : English
Default : Yes
Forced : No

Audio
ID : 2
Format : DTS
Format/Info : Digital Theater Systems
Codec ID : A_DTS
Duration : 1 h 27 min
Bit rate mode : Constant
Bit rate : 1 509 kb/s
Channel(s) : 6 channels
Channel layout : C L R Ls Rs LFE
Sampling rate : 48.0 kHz
Frame rate : 93.750 FPS (512 SPF)
Bit depth : 24 bits
Compression mode : Lossy
Stream size : 946 MiB (13%)
Language : English
Default : Yes
Forced : No

Text
ID : 3
Format : UTF-8
Codec ID : S_TEXT/UTF8
Codec ID/Info : UTF-8 Plain Text
Language : English
Default : No
Forced : No





1 个附件 售价 大小 下载 时间

Perriers.Bounty.2009.1080p.BluRay.x264.DTS-FGT.torrent 0 金币 70.75K 245 次 14天前

#1楼
发帖时间:2020-07-01 09:04:00   |   回复数:1
911degrees
隐世仙人♂
非常感谢,谢谢分享
13天前 #2楼
游客组