coor
一代宗师

[2018] [欧美] [其他] [BD-1080P] 修女 The.Nun.2018.1080p.BluRay.x264.DTS-HD.MA.7.1-FGT 9.26GB

-->



◎译  名 修女 / Valak / 招魂外传 / 诡修女(港) / 鬼修女(台)
◎片  名 The Nun
◎年  代 2018
◎产  地 美国
◎类  别 悬疑 / 惊悚 / 恐怖
◎语  言 英语 / 法语 / 罗马尼亚语 / 拉丁语
◎上映日期 2018-09-07(美国)
◎IMDb评分 5.3/10 from 109999 users
◎IMDb链接 https://www.imdb.com/title/tt5814060
◎豆瓣评分 5.9/10 from 41118 users
◎豆瓣链接 https://movie.douban.com/subject/26825664/
◎片  长 96分钟
◎导  演 科林·哈迪 Corin Hardy
◎编  剧 加里·多伯曼 Gary Dauberman / 温子仁 James Wan
◎主  演 德米安·比齐尔 Demián Bichir
      泰莎·法米加 Taissa Farmiga
      乔纳斯·布洛凯 Jonas Bloquet
      邦妮·阿伦斯 Bonnie Aarons
      维拉·法米加 Vera Farmiga
      帕特里克·威尔森 Patrick Wilson
      英格丽·比苏 Ingrid Bisu
      夏洛特·霍普 Charlotte Hope
      桑德拉·特蕾丝 Sandra Teles
      奥古斯特·马图洛 August Maturo
      迈克尔·史麦利 Michael Smiley
      大卫·霍罗维奇 David Horovitch
      丽丽·博尔丹 Lili Bordán
      斯嘉丽·希克斯 Scarlett Hicks
      丽兹·科菲 Izzie Coffey
      迪·布拉雷·贝克尔 Dee Bradley Baker
      黛布拉·威尔逊 Debra Wilson
      马克·斯达格 Mark Steger
      莉迪亚·科洛科 Lidiya Korotko
      艾玛·阿普尔顿 Emma Appleton
      约翰尼·科瓦内 Jonny Coyne
      Daniel Mandehr
      西蒙·瑞 Simon Rhee
      桑德拉·罗斯科 Sandra Rosko


◎标  签 恐怖 | 惊悚 | 温子仁 | 美国 | 招魂外传 | 灵异 | 招魂宇宙 | 2018

◎简  介

  远在罗马尼亚乡间的一所修道院发生修女自杀事件。为此,梵蒂冈委派伯克神父(德米安·比齐尔 Demián Bichir 饰)和见习修女艾琳(泰莎·法米加 Taissa Farmiga 饰)前去调查。抵达目的地后,他们首先找到了定期给该修道院运送物资的法国青年弗兰切(乔纳斯·布洛凯 Jonas Bloquet 饰),而他正是第一个发现修女尸体的目击人。三人进入修道院,里面的气氛阴森鬼魅,修女们则飘忽不定,有如幽灵。看不见面容的修道院长称修女们正在静默祈祷,第二天才能回答他们的问题。无奈之下,伯克神父一行只好暂时在修道院落脚。
  可是随着夜幕降临,真正的恐怖开始浮现,恶魔对虔诚的信仰展开了毫无差别的狙杀……

Video
ID : 1
Format : AVC
Format/Info : Advanced Video Codec
Format profile : [email protected]
Format settings : CABAC / 5 Ref Frames
Format settings, CABAC : Yes
Format settings, ReFrames : 5 frames
Codec ID : V_MPEG4/ISO/AVC
Duration : 1 h 36 min
Bit rate : 9 833 kb/s
Width : 1 920 pixels
Height : 800 pixels
Display aspect ratio : 2.40:1
Frame rate mode : Constant
Frame rate : 23.976 FPS
Color space : YUV
Chroma subsampling : 4:2:0
Bit depth : 8 bits
Scan type : Progressive
Bits/(Pixel*Frame) : 0.267
Stream size : 6.63 GiB (72%)
Title : The.Nun.2018.1080p.BluRay.x264.DTS-HD.MA.7.1-FGT
Writing library : x264 core 157 r2935 545de2f
Encoding settings : cabac=1 / ref=5 / deblock=1:0:0 / analyse=0x3:0x133 / me=umh / subme=7 / psy=1 / psy_rd=1.00:0.00 / mixed_ref=1 / me_range=16 / chroma_me=1 / trellis=1 / 8x8dct=1 / cqm=0 / deadzone=21,11 / fast_pskip=0 / chroma_qp_offset=-2 / threads=25 / lookahead_threads=4 / sliced_threads=0 / nr=0 / decimate=1 / interlaced=0 / bluray_compat=0 / constrained_intra=0 / bframes=3 / b_pyramid=2 / b_adapt=1 / b_bias=0 / direct=1 / weightb=1 / open_gop=0 / weightp=2 / keyint=250 / keyint_min=23 / scenecut=40 / intra_refresh=0 / rc_lookahead=40 / rc=2pass / mbtree=1 / bitrate=9833 / ratetol=1.0 / qcomp=0.60 / qpmin=0 / qpmax=69 / qpstep=4 / cplxblur=20.0 / qblur=0.5 / ip_ratio=1.40 / aq=1:1.00
Language : English
Default : Yes
Forced : No

Audio
ID : 2
Format : DTS XLL
Format/Info : Digital Theater Systems
Commercial name : DTS-HD Master Audio
Codec ID : A_DTS
Duration : 1 h 36 min
Bit rate mode : Variable
Bit rate : 3 875 kb/s
Channel(s) : 8 channels
Channel layout : C L R LFE Lb Rb Lss Rss
Sampling rate : 48.0 kHz
Frame rate : 93.750 FPS (512 SPF)
Bit depth : 24 bits
Compression mode : Lossless
Stream size : 2.61 GiB (28%)
Title : The.Nun.2018.1080p.BluRay.x264.DTS-HD.MA.7.1-FGT
Language : English
Default : Yes
Forced : No

Text #1
ID : 3
Format : UTF-8
Codec ID : S_TEXT/UTF8
Codec ID/Info : UTF-8 Plain Text
Duration : 1 h 30 min
Bit rate : 30 b/s
Count of elements : 724
Stream size : 20.4 KiB (0%)
Title : English-SRT
Language : English
Default : Yes
Forced : No

Text #2
ID : 4
Format : PGS
Muxing mode : zlib
Codec ID : S_HDMV/PGS
Codec ID/Info : Picture based subtitle format used on BDs/HD-DVDs
Duration : 1 h 35 min
Bit rate : 25.5 kb/s
Count of elements : 1885
Stream size : 17.4 MiB (0%)
Title : English-PGS
Language : English
Default : No
Forced : No

Text #3
ID : 5
Format : PGS
Muxing mode : zlib
Codec ID : S_HDMV/PGS
Codec ID/Info : Picture based subtitle format used on BDs/HD-DVDs
Duration : 1 h 35 min
Bit rate : 16.3 kb/s
Count of elements : 1410
Stream size : 11.1 MiB (0%)
Title : French-PGS
Language : French
Default : No
Forced : No

Text #4
ID : 6
Format : PGS
Muxing mode : zlib
Codec ID : S_HDMV/PGS
Codec ID/Info : Picture based subtitle format used on BDs/HD-DVDs
Duration : 1 h 35 min
Bit rate : 18.2 kb/s
Count of elements : 1274
Stream size : 12.4 MiB (0%)
Title : Spanish-PGS
Language : Spanish
Default : No
Forced : No

Text #5
ID : 7
Format : PGS
Muxing mode : zlib
Codec ID : S_HDMV/PGS
Codec ID/Info : Picture based subtitle format used on BDs/HD-DVDs
Duration : 1 h 35 min
Bit rate : 17.3 kb/s
Count of elements : 1272
Stream size : 11.8 MiB (0%)
Title : Portuguese-PGS
Language : Portuguese
Default : No
Forced : No

Menu
00:00:00.000 : en:Chapter 01
00:08:42.772 : en:Chapter 02
00:17:55.074 : en:Chapter 03
00:29:17.505 : en:Chapter 04
00:38:05.032 : en:Chapter 05
00:48:49.801 : en:Chapter 06
00:58:49.192 : en:Chapter 07
01:09:16.944 : en:Chapter 08
01:18:14.564 : en:Chapter 09
01:24:18.636 : en:Chapter 10
01:32:30.294 : en:Chapter 11





1 个附件 售价 大小 下载 时间

The.Nun.2018.1080p.BluRay.x264.DTS-HD.MA.7.1-FGT.torrent 0 金币 93.13K 812 次 14天前

#1楼
发帖时间:2020-07-01 09:06:43   |   回复数:2
911degrees
隐世仙人♂
非常感谢,谢谢分享
13天前 #2楼
liyouchai
隐世仙人♂
谢谢楼主分享资源
13天前 #3楼
游客组