coor
一代宗师

[更 早] [欧美] [剧情] [BD-1080P] 猛虎出山 Malone.1987.1080p.BluRay.x264.DTS-FGT 9.30GB

-->



◎译  名 猛虎出山
◎片  名 Malone
◎年  代 1987
◎产  地 美国
◎类  别 剧情 / 动作 / 惊悚
◎语  言 英语
◎上映日期 1987
◎IMDb评分 5.8/10 from 2545 users
◎IMDb链接 https://www.imdb.com/title/tt0093483
◎豆瓣评分 0/10 from 0 users
◎豆瓣链接 https://movie.douban.com/subject/5047426/
◎片  长 92 分钟
◎导  演 哈利·柯克利斯 Harley Cokeliss
◎编  剧 克里斯托弗·弗兰克 Christopher Frank
◎主  演 伯特·雷诺兹 Burt Reynolds
      克里夫·罗伯逊 Cliff Robertson
      劳伦·赫顿 Lauren Hutton
      肯尼思·麦克米伦 Kenneth McMillan
      辛西娅·吉布 Cynthia Gibb
      斯科特·威尔森 Scott Wilson
      菲利普·安格里姆 Philip Anglim
      崔西·沃特 Tracey Walter


◎标  签 美国 | BDISO | 1987

◎简  介

  中情局杀手想金盆洗手是多么的艰难......

Video
ID : 1
Format : AVC
Format/Info : Advanced Video Codec
Format profile : [email protected]
Format settings : CABAC / 4 Ref Frames
Format settings, CABAC : Yes
Format settings, Reference frames : 4 frames
Codec ID : V_MPEG4/ISO/AVC
Duration : 1 h 31 min
Bit rate : 13.0 Mb/s
Width : 1 920 pixels
Height : 1 040 pixels
Display aspect ratio : 1.85:1
Frame rate mode : Constant
Frame rate : 23.976 (24000/1001/189150) FPS
Color space : YUV
Chroma subsampling : 4:2:0
Bit depth : 8 bits
Scan type : Progressive
Bits/(Pixel*Frame) : 0.272
Stream size : 8.33 GiB (90%)
Title : Malone.1987.1080p.BluRay.x264.DTS-FGT
Writing library : x264 core 155 r2901 7d0ff22
Encoding settings : cabac=1 / ref=4 / deblock=1:-3:-3 / analyse=0x3:0x133 / me=umh / subme=10 / psy=1 / psy_rd=1.00:0.15 / mixed_ref=1 / me_range=24 / chroma_me=1 / trellis=2 / 8x8dct=1 / cqm=0 / deadzone=21,11 / fast_pskip=1 / chroma_qp_offset=-3 / threads=6 / lookahead_threads=1 / sliced_threads=0 / nr=0 / decimate=1 / interlaced=0 / bluray_compat=0 / constrained_intra=0 / bframes=8 / b_pyramid=2 / b_adapt=2 / b_bias=0 / direct=3 / weightb=1 / open_gop=0 / weightp=2 / keyint=250 / keyint_min=23 / scenecut=40 / intra_refresh=0 / rc_lookahead=60 / rc=2pass / mbtree=1 / bitrate=13000 / ratetol=1.0 / qcomp=0.60 / qpmin=0 / qpmax=69 / qpstep=4 / cplxblur=20.0 / qblur=0.5 / vbv_maxrate=49000 / vbv_bufsize=38000 / nal_hrd=none / filler=0 / ip_ratio=1.20 / aq=1:0.85
Language : English
Default : Yes
Forced : No

Audio
ID : 2
Format : DTS
Format/Info : Digital Theater Systems
Codec ID : A_DTS
Duration : 1 h 31 min
Bit rate mode : Constant
Bit rate : 1 509 kb/s
Channel(s) : 2 channels
Channel layout : L R
Sampling rate : 48.0 kHz
Frame rate : 93.750 FPS (512 SPF)
Bit depth : 16 bits
Compression mode : Lossy
Stream size : 991 MiB (10%)
Title : Malone.1987.1080p.BluRay.x264.DTS-FGT
Language : English
Default : Yes
Forced : No





1 个附件 售价 大小 下载 时间

Malone.1987.1080p.BluRay.x264.DTS-FGT.torrent 0 金币 93.54K 259 次 14天前

#1楼
发帖时间:2020-07-01 09:20:42   |   回复数:1
911degrees
隐世仙人♂
非常感谢,谢谢分享
14天前 #2楼
游客组