travismk
一代宗师

[更 早] [欧美] [喜剧] [WEB-1080P] 星际宝贝史迪奇/扮嘢小魔星之史迪仔开心逐个捉 Stitch.The.Movie.2003.1080p.AMZN.WEBRip.DDP5.1.x264-T7ST

-->

帖子完整标题:星际宝贝史迪奇/扮嘢小魔星之史迪仔开心逐个捉 Stitch.The.Movie.2003.1080p.AMZN.WEBRip.DDP5.1.x264-T7ST 2.68GB



◎译  名 星际宝贝史迪奇/扮嘢小魔星之史迪仔开心逐个捉(港)
◎片  名 Stitch! The Movie
◎年  代 2003
◎产  地 美国
◎类  别 喜剧 / 科幻 / 动画 / 家庭 / 冒险
◎语  言 英语
◎上映日期 2003-08-25(美国)
◎IMDb评分 6.2/10 from 8230 users
◎IMDb链接 https://www.imdb.com/title/tt0348124/
◎豆瓣评分 8.6/10 from 7754 users
◎豆瓣链接 https://movie.douban.com/subject/1401603/
◎片  长 60分钟
◎导  演 托尼·克莱格 Tony Craig / 罗伯茨·甘纳韦 Roberts Gannaway
◎编  剧 罗伯茨·甘纳韦 Roberts Gannaway / 杰斯·温菲尔德 Jess Winfield
◎主  演 黛维·切斯 Daveigh Chase
      克里斯·桑德斯 Chris Sanders
      蒂亚·卡雷尔 Tia Carrere
      戴维·奥格登·施蒂尔斯 David Ogden Stiers
      凯文·麦克唐纳德 Kevin McDonald
      文·瑞姆斯 Ving Rhames
      迪·布拉雷·贝克尔 Dee Bradley Baker
      凯文·迈克尔·理查德森 Kevin Michael Richardson
      杰夫·贝内特 Jeff Bennett
      佐伊·考德威尔 Zoe Caldwell
      特蕾丝·麦克尼尔 Tress MacNeille
      库内瓦·穆克 Kunewa Mook
      莉莉娜·穆米 Liliana Mumy
      罗伯·鲍森 Rob Paulsen
      弗兰克·维尔克 Frank Welker
      科里·伯顿 Corey Burton

◎标  签 动画 | 美国 | 迪斯尼 | Disney | 迪士尼 | 星际宝贝 | 喜剧 | 科幻

◎简  介

  本片剧情接续原本电影,叙述在史迪奇这“626号实验品”之前,强霸博士已有好几百个失败实验产物,如今强霸居然把这些实验产物全都偷偷走私到地球。心怀不轨的越狱者仓鼠飞轮和被开除而怀恨在心的刚图舰长联手,绑架了强霸博士,并且要去寻回之前的625个实验品,再次创造出全新的小魔星?这些希奇古怪的星际宝贝实验品包括有能发出强力电波的第221号实验品、懒惰却能做出美味三明治的第625号实验品等等。
  
  如今,夏威夷七岁小女孩Lilo(莉萝)和星际宝贝Stitch(史迪奇)要协助星际联盟,在夏威夷群岛做地毯式搜索,抢在坏蛋之前找到625个实验品,并且还要帮这些星际宝贝都找到各自温暖的家!

◎获奖情况

  第31届动画安妮奖 ?(2004)
  最佳特殊动画(提名)

Video
ID : 1
Format : AVC
Format/Info : Advanced Video Codec
Format profile : [email protected]
Format settings : CABAC / 4 Ref Frames
Format settings, CABAC : Yes
Format settings, Reference frames : 4 frames
Codec ID : V_MPEG4/ISO/AVC
Duration : 1 h 0 min
Bit rate mode : Constant
Bit rate : 5 701 kb/s
Nominal bit rate : 10 000 kb/s
Width : 1 920 pixels
Height : 1 080 pixels
Display aspect ratio : 16:9
Frame rate mode : Constant
Frame rate : 23.976 (24000/1001/189150) FPS
Color space : YUV
Chroma subsampling : 4:2:0
Bit depth : 8 bits
Scan type : Progressive
Bits/(Pixel*Frame) : 0.115
Stream size : 2.41 GiB (90%)
Default : Yes
Forced : No
Color range : Limited
Color primaries : BT.709
Transfer characteristics : BT.709
Matrix coefficients : BT.709

Audio
ID : 2
Format : E-AC-3
Format/Info : Enhanced AC-3
Commercial name : Dolby Digital Plus
Codec ID : A_EAC3
Duration : 1 h 0 min
Bit rate mode : Constant
Bit rate : 640 kb/s
Channel(s) : 6 channels
Channel layout : L R C LFE Ls Rs
Sampling rate : 48.0 kHz
Frame rate : 31.250 FPS (1536 SPF)
Compression mode : Lossy
Stream size : 276 MiB (10%)
Title : English
Language : English
Service kind : Complete Main
Default : Yes
Forced : No

Text
ID : 3
Format : UTF-8
Codec ID : S_TEXT/UTF8
Codec ID/Info : UTF-8 Plain Text
Duration : 58 min 59 s
Bit rate : 59 b/s
Count of elements : 1035
Stream size : 25.8 KiB (0%)
Title : English
Language : English
Default : No
Forced : No

Menu
00:00:00.000 : en:Opening / Aloha, Cousin!
00:05:33.000 : en:One Of A Kind
00:11:27.000 : en:How Bad Can It Be?
00:17:06.000 : en:Experiment 221
00:21:33.000 : en:Dr. Jacques Von H?msterviel
00:26:09.000 : en:Detention Cell Phone
00:30:15.000 : en:A Sleepy Cobra
00:37:07.000 : en:The Old Lighthouse
00:42:50.000 : en:Be Free, Cousins
00:47:24.000 : en:A Buncha Baloney
00:53:13.000 : en:Sparky\'s New Job / Closing
01:00:06.000 : en:I\'ll Get The Wig





1 个附件 售价 大小 下载 时间

Stitch.The.Movie.2003.1080p.AMZN.WEBRip.DDP5.1.x264-T7ST.zip 0 金币 27.44K 189 次 3天前

#1楼
发帖时间:2021-01-13 22:44:04   |   回复数:0
游客组