travismk
一代宗师

[2006] [欧美] [喜剧] [WEB-1080P] 星际宝贝:终极任务 Leroy.and.Stitch.2006.1080p.AMZN.WEBRip.DDP5.1.x264-T7ST 5.33GB

-->

帖子完整标题:星际宝贝:终极任务 Leroy.and.Stitch.2006.1080p.AMZN.WEBRip.DDP5.1.x264-T7ST 5.33GB



◎译  名 星际宝贝:终极任务
◎片  名 Leroy & Stitch
◎年  代 2006
◎产  地 美国
◎类  别 喜剧 / 科幻 / 动画 / 家庭 / 冒险
◎语  言 英语
◎上映日期 2006-06-23(美国)
◎IMDb评分 6.2/10 from 4971 users
◎IMDb链接 https://www.imdb.com/title/tt0486761/
◎豆瓣评分 8.4/10 from 3505 users
◎豆瓣链接 https://movie.douban.com/subject/1823218/
◎片  长 73分钟
◎导  演 托尼·克莱格 Tony Craig / 罗伯茨·甘纳韦 Roberts Gannaway
◎编  剧 罗伯茨·甘纳韦 Roberts Gannaway / 杰斯·温菲尔德 Jess Winfield
◎主  演 黛维·切斯 Daveigh Chase
      克里斯·桑德斯 Chris Sanders
      戴维·奥格登·施蒂尔斯 David Ogden Stiers
      凯文·麦克唐纳德 Kevin McDonald
      蒂亚·卡雷尔 Tia Carrere
      凯文·迈克尔·理查德森 Kevin Michael Richardson
      罗伯·鲍森 Rob Paulsen
      杰夫·贝内特 Jeff Bennett
      佐伊·考德威尔 Zoe Caldwell
      博卡·格德斯维特 Bobcat Goldthwait
      吉莲·亨利 Jillian Henry
      莉莉·石田 Lili Ishida
      特蕾丝·麦克尼尔 Tress MacNeille
      罗基·麦克默里 Rocky McMurray
      莉莉娜·穆米 Liliana Mumy
      文·瑞姆斯 Ving Rhames
      黛布拉·罗杰斯 Debra Rogers
      道格·斯通 Doug Stone
      塔拉·斯特朗 Tara Strong
      卡莉·怀特赫斯特 Kali Whitehurst

◎标  签 动画 | 美国 | 迪斯尼 | 星际宝贝 | 迪士尼 | 2006 | 史迪奇 | 科幻

◎简  介

  当莉洛(黛维·切斯 Daveigh Chase 配音)和史迪奇(克里斯·桑德斯 Chris Sanders 配音)终于完成了他们的任务之后,史迪奇即将和贾巴博士(大卫·奥根·斯提尔斯 David Ogden Stiers 配音)以及普利凯利(凯文·麦克唐纳 Kevin McDonald 配音)一起返回他们的星球,然而,就在这个节骨眼上,一个名为勒罗伊(克里斯·桑德斯 Chris Sanders 配音)的邪恶试验品浮出了水面。
  
  野心勃勃的汉姆斯特维尔博士(杰夫·贝内特 Jeff Bennett 配音)想要将极为危险的勒罗伊复制成为一支军队,统治整个宇宙。为了粉碎汉姆斯特维尔博士的阴谋,莉洛和史迪奇再度合作,他们所要面对的,是和往日不同的,强大而又危险的敌人。

Video
ID : 1
Format : AVC
Format/Info : Advanced Video Codec
Format profile : [email protected]
Format settings : CABAC / 4 Ref Frames
Format settings, CABAC : Yes
Format settings, Reference frames : 4 frames
Format settings, GOP : M=4, N=48
Codec ID : V_MPEG4/ISO/AVC
Duration : 1 h 12 min
Bit rate mode : Constant
Bit rate : 10 000 kb/s
Width : 1 920 pixels
Height : 1 080 pixels
Display aspect ratio : 16:9
Frame rate mode : Constant
Frame rate : 23.976 (24000/1001/189150) FPS
Color space : YUV
Chroma subsampling : 4:2:0
Bit depth : 8 bits
Scan type : Progressive
Bits/(Pixel*Frame) : 0.201
Stream size : 5.01 GiB (94%)
Default : Yes
Forced : No
Color range : Limited
Color primaries : BT.709
Transfer characteristics : BT.709
Matrix coefficients : BT.709

Audio
ID : 2
Format : E-AC-3
Format/Info : Enhanced AC-3
Commercial name : Dolby Digital Plus
Codec ID : A_EAC3
Duration : 1 h 12 min
Bit rate mode : Constant
Bit rate : 640 kb/s
Channel(s) : 6 channels
Channel layout : L R C LFE Ls Rs
Sampling rate : 48.0 kHz
Frame rate : 31.250 FPS (1536 SPF)
Compression mode : Lossy
Stream size : 333 MiB (6%)
Language : English
Service kind : Complete Main
Default : Yes
Forced : No

Text
ID : 3
Format : UTF-8
Codec ID : S_TEXT/UTF8
Codec ID/Info : UTF-8 Plain Text
Duration : 1 h 12 min
Bit rate : 61 b/s
Count of elements : 1085
Stream size : 32.8 KiB (0%)
Title : English
Language : English
Default : No
Forced : No

Menu
00:00:00.000 : en:Main Title
00:05:14.000 : en:Hard To Say Goodbye
00:12:01.000 : en:Captain Stitch
00:18:40.000 : en:New Routines
00:23:35.000 : en:So Lonesome
00:26:01.000 : en:Does It Come In Red?
00:33:41.000 : en:Special Order
00:42:12.000 : en:Leroy Collects His Cousins
00:48:57.000 : en:Looking For Stitch
00:55:35.000 : en:50,000 Leroy Clones Can\'t Be Wrong
01:01:50.000 : en:Aloha From Hawaii
01:07:57.000 : en:End Credits





1 个附件 售价 大小 下载 时间

Leroy.and.Stitch.2006.1080p.AMZN.WEBRip.DDP5.1.x264-T7ST.zip 0 金币 27.33K 231 次 3天前

#1楼
发帖时间:2021-01-13 22:46:27   |   回复数:0
游客组