travismk
一代宗师

[更 早] [其他] [喜剧] [WEB-1080P] 总菜单 Menu.Total.1986.GERMAN.1080p.AMZN.WEBRip.DDP2.0.x264-TEPES 5.43GB

-->

帖子完整标题:总菜单 Menu.Total.1986.GERMAN.1080p.AMZN.WEBRip.DDP2.0.x264-TEPES 5.43GB



◎译  名 总菜单
◎片  名 Menu Total
◎年  代 1986
◎产  地 德国
◎类  别 喜剧 / 惊悚 / 恐怖
◎语  言 德语
◎上映日期 
◎IMDb评分 5.4/10 from 207 users
◎IMDb链接 https://www.imdb.com/title/tt0091511/
◎豆瓣评分 /10 from 0 users
◎豆瓣链接 https://movie.douban.com/subject/26745347/
◎片  长 81分钟
◎导  演 克里斯托弗·施林根西夫 Christoph Schlingensief
◎编  剧 克里斯托弗·施林根西夫 Christoph Schlingensief

◎简  介

  暂无相关剧情介绍

Video
ID : 1
Format : AVC
Format/Info : Advanced Video Codec
Format profile : [email protected]
Format settings : CABAC / 4 Ref Frames
Format settings, CABAC : Yes
Format settings, Reference frames : 4 frames
Codec ID : V_MPEG4/ISO/AVC
Duration : 1 h 21 min
Bit rate mode : Constant
Bit rate : 9 345 kb/s
Nominal bit rate : 10 000 kb/s
Width : 1 920 pixels
Height : 1 080 pixels
Display aspect ratio : 16:9
Frame rate mode : Constant
Frame rate : 24.000 FPS
Color space : YUV
Chroma subsampling : 4:2:0
Bit depth : 8 bits
Scan type : Progressive
Bits/(Pixel*Frame) : 0.188
Stream size : 5.30 GiB (98%)
Default : Yes
Forced : No
Color range : Limited
Color primaries : BT.709
Transfer characteristics : BT.709
Matrix coefficients : BT.709

Audio
ID : 2
Format : E-AC-3
Format/Info : Enhanced AC-3
Commercial name : Dolby Digital Plus
Codec ID : A_EAC3
Duration : 1 h 21 min
Bit rate mode : Constant
Bit rate : 224 kb/s
Channel(s) : 2 channels
Channel layout : L R
Sampling rate : 48.0 kHz
Frame rate : 31.250 FPS (1536 SPF)
Compression mode : Lossy
Stream size : 130 MiB (2%)
Language : German
Service kind : Complete Main
Default : Yes
Forced : No

Text #1
ID : 3
Format : UTF-8
Codec ID : S_TEXT/UTF8
Codec ID/Info : UTF-8 Plain Text
Duration : 1 h 18 min
Bit rate : 10 b/s
Count of elements : 205
Stream size : 5.87 KiB (0%)
Language : English
Default : No
Forced : No

Text #2
ID : 4
Format : UTF-8
Codec ID : S_TEXT/UTF8
Codec ID/Info : UTF-8 Plain Text
Duration : 1 h 18 min
Bit rate : 10 b/s
Count of elements : 206
Stream size : 5.81 KiB (0%)
Language : Danish
Default : No
Forced : No

Text #3
ID : 5
Format : UTF-8
Codec ID : S_TEXT/UTF8
Codec ID/Info : UTF-8 Plain Text
Duration : 1 h 18 min
Bit rate : 10 b/s
Count of elements : 205
Stream size : 5.95 KiB (0%)
Language : Northern Sami
Default : No
Forced : No

Text #4
ID : 6
Format : UTF-8
Codec ID : S_TEXT/UTF8
Codec ID/Info : UTF-8 Plain Text
Duration : 1 h 18 min
Bit rate : 10 b/s
Count of elements : 205
Stream size : 6.29 KiB (0%)
Title : Espa?ol
Language : Spanish
Default : No
Forced : No

Text #5
ID : 7
Format : UTF-8
Codec ID : S_TEXT/UTF8
Codec ID/Info : UTF-8 Plain Text
Duration : 1 h 18 min
Bit rate : 11 b/s
Count of elements : 222
Stream size : 6.66 KiB (0%)
Language : French
Default : No
Forced : No

Text #6
ID : 8
Format : UTF-8
Codec ID : S_TEXT/UTF8
Codec ID/Info : UTF-8 Plain Text
Duration : 1 h 18 min
Bit rate : 10 b/s
Count of elements : 229
Stream size : 5.93 KiB (0%)
Language : Italian
Default : No
Forced : No

Text #7
ID : 9
Format : UTF-8
Codec ID : S_TEXT/UTF8
Codec ID/Info : UTF-8 Plain Text
Duration : 1 h 18 min
Bit rate : 10 b/s
Count of elements : 206
Stream size : 5.99 KiB (0%)
Language : Dutch
Default : No
Forced : No

Text #8
ID : 10
Format : UTF-8
Codec ID : S_TEXT/UTF8
Codec ID/Info : UTF-8 Plain Text
Duration : 1 h 18 min
Bit rate : 9 b/s
Count of elements : 205
Stream size : 5.71 KiB (0%)
Language : Norwegian Bokmal
Default : No
Forced : No

Text #9
ID : 11
Format : UTF-8
Codec ID : S_TEXT/UTF8
Codec ID/Info : UTF-8 Plain Text
Duration : 1 h 18 min
Bit rate : 10 b/s
Count of elements : 205
Stream size : 5.95 KiB (0%)
Title : Português
Language : Portuguese
Default : No
Forced : No





1 个附件 售价 大小 下载 时间

Menu.Total.1986.GERMAN.1080p.AMZN.WEBRip.DDP2.0.x264-TEPES.zip 0 金币 27.84K 91 次 2天前

#1楼
发帖时间:2021-01-14 11:25:30   |   回复数:0
游客组