travismk
一代宗师

[2020] [欧美] [惊悚] [BD-720P] 索命咒/咒语 Spell.2020.720p.BluRay.x264-VETO 3.69GB

-->

帖子完整标题:索命咒/咒语 Spell.2020.720p.BluRay.x264-VETO 3.69GB



◎译  名 索命咒/咒语(台)
◎片  名 Spell
◎年  代 2020
◎产  地 美国
◎类  别 惊悚 / 恐怖
◎语  言 英语
◎上映日期 2020-10-30(美国网络)
◎IMDb评分 5.4/10 from 2494 users
◎IMDb链接 https://www.imdb.com/title/tt10736580/
◎豆瓣评分 5.9/10 from 743 users
◎豆瓣链接 https://movie.douban.com/subject/34889611/
◎片  长 91分钟
◎导  演 马克·托德莱 Mark Tonderai
◎编  剧 科特·维莫 Kurt Wimmer
◎主  演 欧玛瑞·哈德威克 Omari Hardwick
      洛雷塔·迪瓦恩 Loretta Devine
      洛林·布伦斯 Lorraine Burroughs
      汉娜·格内拉 Hannah Gonera
      卡利法·波顿 Kalifa Burton
      约翰·比斯利 John Beasley
      图米绍·麻沙 Tumisho Masha
      史蒂夫·穆鲁鲁 Steve Mululu
      彼得·巴特勒 Peter Butler
      安德烈·雅各布斯 Andre Jacobs
      尤尔·马西滕 Yule Masiteng

◎标  签 恐怖 | 惊悚 | 巫术 | 美国 | 2020 | 黑人 | 悬疑 | 恐怖惊悚悬疑重口血腥

◎简  介

  Marquis(欧玛瑞·哈德威克 饰)带着家人飞往偏远的阿帕拉契参加父亲的丧礼,不料途中一场暴风雨使得飞机失控。Marquis醒来时受了伤,自己一人困在Ms. Eloise(洛雷塔·迪瓦恩 饰)的阁楼里。Ms.Eloise说自己用了Marquis的血和皮肤制作了巫毒Boogity,并将使用Boogity帮他治疗痊愈。求救无门的Marquis只能想尽办法以智取胜,试图下个月圆之夜之前逃离Ms. Eloise的巫术并拯救自己的家人免于这场邪恶的祭典。

Video
ID : 1
Format : AVC
Format/Info : Advanced Video Codec
Format profile : [email protected]
Format settings : CABAC / 8 Ref Frames
Format settings, CABAC : Yes
Format settings, Reference frames : 8 frames
Codec ID : V_MPEG4/ISO/AVC
Duration : 1 h 31 min
Bit rate : 5 035 kb/s
Width : 1 280 pixels
Height : 536 pixels
Display aspect ratio : 2.40:1
Frame rate mode : Constant
Frame rate : 23.976 (24000/1001/189150) FPS
Color space : YUV
Chroma subsampling : 4:2:0
Bit depth : 8 bits
Scan type : Progressive
Bits/(Pixel*Frame) : 0.306
Stream size : 3.22 GiB (87%)
Writing library : x264 core 161 r3033 0d754ec
Encoding settings : cabac=1 / ref=8 / deblock=1:-3:-3 / analyse=0x3:0x133 / me=umh / subme=9 / psy=1 / psy_rd=1.00:0.00 / mixed_ref=1 / me_range=16 / chroma_me=1 / trellis=2 / 8x8dct=1 / cqm=0 / deadzone=21,11 / fast_pskip=0 / chroma_qp_offset=-2 / threads=24 / lookahead_threads=2 / sliced_threads=0 / nr=0 / decimate=0 / interlaced=0 / bluray_compat=0 / constrained_intra=0 / bframes=3 / b_pyramid=2 / b_adapt=2 / b_bias=0 / direct=3 / weightb=1 / open_gop=0 / weightp=2 / keyint=250 / keyint_min=23 / scenecut=40 / intra_refresh=0 / rc=crf / mbtree=0 / crf=17.0 / qcomp=0.60 / qpmin=0 / qpmax=69 / qpstep=4 / ip_ratio=1.40 / pb_ratio=1.30 / aq=3:0.70
Language : English
Default : Yes
Forced : No
Color range : Limited
Matrix coefficients : BT.709

Audio
ID : 2
Format : AC-3
Format/Info : Audio Coding 3
Commercial name : Dolby Digital
Codec ID : A_AC3
Duration : 1 h 31 min
Bit rate mode : Constant
Bit rate : 640 kb/s
Channel(s) : 6 channels
Channel layout : L R C LFE Ls Rs
Sampling rate : 48.0 kHz
Frame rate : 31.250 FPS (1536 SPF)
Compression mode : Lossy
Stream size : 418 MiB (11%)
Language : English
Service kind : Complete Main
Default : Yes
Forced : No

Text #1
ID : 3
Format : PGS
Codec ID : S_HDMV/PGS
Codec ID/Info : Picture based subtitle format used on BDs/HD-DVDs
Duration : 1 h 23 min
Bit rate : 27.7 kb/s
Count of elements : 1502
Stream size : 16.5 MiB (0%)
Title : English
Language : English
Default : No
Forced : No

Text #2
ID : 4
Format : PGS
Codec ID : S_HDMV/PGS
Codec ID/Info : Picture based subtitle format used on BDs/HD-DVDs
Duration : 1 h 26 min
Bit rate : 33.3 kb/s
Count of elements : 2030
Stream size : 20.6 MiB (1%)
Title : English (SDH)
Language : English
Default : No
Forced : No

Text #3
ID : 5
Format : PGS
Codec ID : S_HDMV/PGS
Codec ID/Info : Picture based subtitle format used on BDs/HD-DVDs
Duration : 1 h 30 min
Bit rate : 24.9 kb/s
Count of elements : 1508
Stream size : 16.2 MiB (0%)
Title : French
Language : French
Default : No
Forced : No

Text #4
ID : 6
Format : PGS
Codec ID : S_HDMV/PGS
Codec ID/Info : Picture based subtitle format used on BDs/HD-DVDs
Duration : 1 h 30 min
Bit rate : 23.6 kb/s
Count of elements : 1488
Stream size : 15.3 MiB (0%)
Title : Spanish
Language : Spanish
Default : No
Forced : No

Text #5
ID : 7
Format : UTF-8
Codec ID : S_TEXT/UTF8
Codec ID/Info : UTF-8 Plain Text
Duration : 1 h 23 min
Bit rate : 42 b/s
Count of elements : 751
Stream size : 25.8 KiB (0%)
Title : English (SRT)
Language : English
Default : No
Forced : No

Text #6
ID : 8
Format : UTF-8
Codec ID : S_TEXT/UTF8
Codec ID/Info : UTF-8 Plain Text
Duration : 1 h 26 min
Bit rate : 49 b/s
Count of elements : 1015
Stream size : 31.6 KiB (0%)
Title : English (SDH SRT)
Language : English
Default : No
Forced : No

Menu
00:00:00.000 : en:Chapter 01
00:06:27.095 : en:Chapter 02
00:16:16.851 : en:Chapter 03
00:25:30.779 : en:Chapter 04
00:33:16.870 : en:Chapter 05
00:41:28.778 : en:Chapter 06
00:49:07.403 : en:Chapter 07
00:58:32.551 : en:Chapter 08
01:05:45.984 : en:Chapter 09
01:11:00.214 : en:Chapter 10
01:16:46.811 : en:Chapter 11
01:24:28.730 : en:Chapter 12





1 个附件 售价 大小 下载 时间

Spell.2020.720p.BluRay.x264-VETO.zip 0 金币 37.58K 866 次 6天前

#1楼
发帖时间:2021-01-14 18:43:09   |   回复数:0
游客组