travismk
一代宗师

[更 早] [欧美] [喜剧] [BD-1080P] 爱在早餐前 Love.Before.Breakfast.1936.1080p.BluRay.x264.FLAC.2.0-HANDJOB 5.94GB

-->

帖子完整标题:爱在早餐前 Love.Before.Breakfast.1936.1080p.BluRay.x264.FLAC.2.0-HANDJOB 5.94GB



◎译  名 爱在早餐前
◎片  名 Love Before Breakfast
◎年  代 1936
◎产  地 美国
◎类  别 喜剧
◎语  言 英语
◎上映日期 1936-03-09
◎IMDb评分 6.3/10 from 713 users
◎IMDb链接 https://www.imdb.com/title/tt0027908/
◎豆瓣评分 /10 from 0 users
◎豆瓣链接 https://movie.douban.com/subject/1721375/
◎片  长 70 分钟
◎导  演 沃尔特·朗 Walter Lang
◎编  剧 费斯·鲍德温 Faith Baldwin / 赫伯特·菲尔茨 Herbert Fields / 克劳德·比尼恩 Claude Binyon / 格特鲁德·珀塞尔 Gertrude Purcell / 萨莫尔·霍芬斯蒂安 Samuel Hoffenstein / Doris Malloy / Harry Clork / 普莱斯顿·斯特奇斯 Preston Sturges
◎主  演 哈罗德·米勒 Harold Miller
      福里斯特·哈维 Forrester Harvey
      南·格雷 Nan Grey
      Betty Lawford
      John 'Dusty' King
      乔治·麦格瑞 George Magrill
      Joseph North
      Harry McDonald
      Paddy O'Flynn
      伯特·穆尔豪斯 Bert Moorhouse
      杰克·莫厄尔 Jack Mower
      Theodore von Eltz
      Beal Wong
      Sammee Tong
      David Tyrell
      拉里·斯蒂尔斯 Larry Steers
      Ada Mae Vaughn
      John Rogers
      Donna Mae Roberts
      Alphonse Martell
      Albert Richman
      唐纳德·海恩斯 Donald Haines
      Diana Gibson
      普雷斯顿·福斯特 Preston Foster
      Howard Christie
      罗伯特·肯特 Robert Kent
      查尔斯·坦嫩 Charles Tannen
      卡洛·朗白 Carole Lombard
      William Arnold
      理查德·卡尔 Richard Carle
      Edward Earle
      乔伊斯·康普顿 Joyce Compton
      恺撒·罗摩洛 Cesar Romero
      安德烈·贝兰杰 George Beranger
      伯特·罗奇 Bert Roach
      Sylvia Andrew
      Harry Depp
      贝丝·弗劳尔斯 Bess Flowers
      帕特·弗莱厄蒂 Pat Flaherty
      杰伊·伊顿 Jay Eaton
      Donald Briggs
      E.E. Clive
      Ralph Brooks
      Allan Cavan
      Janet Beecher
      Jay Belasco
      丹尼斯·欧基夫 Dennis O'Keefe

◎标  签 美国 | CaroleLombard | 1930s | 美国电影 | 爱情 | 卡洛尔·朗白 | 不是默片 | ??CaroleLombard

◎简  介

  暂无相关剧情介绍

Video
ID : 1
Format : AVC
Format/Info : Advanced Video Codec
Format profile : [email protected]
Format settings : CABAC / 5 Ref Frames
Format settings, CABAC : Yes
Format settings, Reference frames : 5 frames
Codec ID : V_MPEG4/ISO/AVC
Duration : 1 h 10 min
Bit rate : 11.7 Mb/s
Width : 1 462 pixels
Height : 1 080 pixels
Display aspect ratio : 4:3
Frame rate mode : Constant
Frame rate : 23.976 (24000/1001/189150) FPS
Color space : YUV
Chroma subsampling : 4:2:0
Bit depth : 8 bits
Scan type : Progressive
Bits/(Pixel*Frame) : 0.308
Stream size : 5.71 GiB (96%)
Writing library : x264 core 157 r2935 545de2f
Encoding settings : cabac=1 / ref=5 / deblock=1:-3:-3 / analyse=0x3:0x133 / me=umh / subme=10 / psy=1 / psy_rd=1.00:0.20 / mixed_ref=1 / me_range=32 / chroma_me=1 / trellis=2 / 8x8dct=1 / cqm=0 / deadzone=21,11 / fast_pskip=0 / chroma_qp_offset=-3 / threads=6 / lookahead_threads=1 / sliced_threads=0 / nr=0 / decimate=0 / interlaced=0 / bluray_compat=0 / constrained_intra=0 / bframes=16 / b_pyramid=2 / b_adapt=2 / b_bias=0 / direct=3 / weightb=1 / open_gop=0 / weightp=2 / keyint=240 / keyint_min=24 / scenecut=40 / intra_refresh=0 / rc_lookahead=60 / rc=crf / mbtree=0 / crf=22.0 / qcomp=0.75 / qpmin=0 / qpmax=69 / qpstep=4 / vbv_maxrate=62500 / vbv_bufsize=78125 / crf_max=0.0 / nal_hrd=none / filler=0 / ip_ratio=1.40 / pb_ratio=1.30 / aq=2:0.70
Default : Yes
Forced : No
Color range : Limited
Color primaries : BT.709
Transfer characteristics : BT.709
Matrix coefficients : BT.709

Audio #1
ID : 2
Format : FLAC
Format/Info : Free Lossless Audio Codec
Codec ID : A_FLAC
Duration : 1 h 10 min
Bit rate mode : Variable
Bit rate : 386 kb/s
Channel(s) : 2 channels
Sampling rate : 48.0 kHz
Frame rate : 11.719 FPS (4096 SPF)
Bit depth : 16 bits
Compression mode : Lossless
Stream size : 193 MiB (3%)
Writing library : libFLAC 1.2.1 (UTC 2007-09-17)
Language : English
Default : Yes
Forced : No

Audio #2
ID : 3
Format : AAC LC
Format/Info : Advanced Audio Codec Low Complexity
Codec ID : A_AAC-2
Duration : 1 h 10 min
Bit rate : 78.7 kb/s
Channel(s) : 2 channels
Channel layout : L R
Sampling rate : 48.0 kHz
Frame rate : 46.875 FPS (1024 SPF)
Compression mode : Lossy
Stream size : 39.4 MiB (1%)
Title : Commentary by Film Historians Alexandra Heller-Nicholas and Joshua Nelson
Language : English
Default : No
Forced : No

Text
ID : 4
Format : UTF-8
Codec ID : S_TEXT/UTF8
Codec ID/Info : UTF-8 Plain Text
Duration : 1 h 7 min
Bit rate : 105 b/s
Count of elements : 1422
Stream size : 52.3 KiB (0%)
Language : English
Default : No
Forced : No

Menu
00:00:00.000 : :Chapter 1
00:11:21.514 : :Chapter 2
00:20:35.234 : :Chapter 3
00:26:16.742 : :Chapter 4
00:33:33.345 : :Chapter 5
00:43:18.262 : :Chapter 6
00:55:01.799 : :Chapter 7
01:04:35.205 : :Chapter 8





1 个附件 售价 大小 下载 时间

Love.Before.Breakfast.1936.1080p.BluRay.x264.FLAC.2.0-HANDJOB.zip 0 金币 30.38K 259 次 13天前

#1楼
发帖时间:2021-04-08 08:54:08   |   回复数:0
游客组